Listen to Psy Trance 2018 - Best of Top 40 Progressive Fullon Goa EDM Hard Dark Techno Acid Rave by Various Artists on Deezer. Created in 1994 by Basic Channel, the German due composed of Moritz Von Oswald and Mark Ernestus, this 12″ has done more than stand the test of time; it remains charging onward. You will undoubtedly and un-questionably be fit for a mix master genious wit 1 of these killa namez. Some death metal bands have been widely influential, but floundered after one or two albums. Dark Techno by Snack Master, released 04 January 2015 Includes high-quality download in MP3, FLAC and more. Lory D is a name you will find missing from the list of celebrated dark techno producers, e. level 1 [deleted] 3 points · 1 year ago. Picture dark but intensely stylish rooms with top-notch lighting technologies to set the mood. We release techno compilation albums to highlight and promote the quality shows and producers we play everyday on Fnoob Techno Radio. The originator. Best of 2019. com or +31 20 775 44 11. Porter Ricks – Biokinetics 1996. Top 20 Techno 90s / Rave Tunes 20. 02 Various Artists LW Recordings. Tunisian techno, Xitsongan rap and Satanic doo-wop: the best new music of 2019 Music From cheeky rappers to explosive hardcore punks, we introduce 50 artists sure to make an impact in the coming year. Dark and dubby couldn't describe them any better. Even minimal techno champion Richie Hawtin could be found dropping the dark club weapon -- a testament to both the ubiquity of the track and Dixon’s transcendent approach to remixes. You'll be gilt as gold in no time. Top 20 Techno 90s / Rave Tunes 20. Sirch & William Kiss - Delhi 11:25 4. Monolink – Sinner (Original Mix) 7:43 04. 100% Upvoted. MainTrack (1:43) 2. wav" WAVE INDEX 01 00:00:00 TRACK 09 AUDIO TITLE "Art Of Stalking" PERFORMER "Suburban Knight" INDEX 00 05:03:70 FILE "Various Artists,Best Of Techno (CD 04),09 - Art Of Stalking. Nkisi loads up a four-track cartridge of blistering hardstep gabba/techno for Arcola with The Dark Orchestra. Listen to Online Radio - Webradio - Netradio - FM and AM Station -WebTV Policescaner. Our goal is to fuel the techno culture in Melbourne to help mark out Australia as a hot spot for the genre. Baby D - Let Me Be Your Fantasy (1992) This one throws everything in but the kitchen sink. FM - Energy. Ranging from classic synth emulations to emotive pads, and unconventional percussive noise generators. Dec 18, 2019 - Explore 338rik's board "Hellectro EBM Dark Techno Aggrotech Old-school Industrial" on Pinterest. 1 Depeche Mode Depeche Mode are an English electronic and synth-pop band formed in 1980 in Basildon, Essex. Relevant artists include Electrypnose, Kromagon, Ivort, Grouch, Tetrameth and Shadow FX. The DJ Name Generator Enter your name to recieve your blockrockin' hip-hop gangsta DJ Name. California, who specialises in dark dubstep and trap, using elements of downtempo, drum and bass, and. Check out Deep House Techno 2020 Top 100 Hits DJ Mix by Various artists on Amazon Music. 2020-06-12 $1. Ouça Psy Trance 2018 - Best of Top 40 Progressive Fullon Goa EDM Hard Dark Techno Acid Rave, por Various Artists, na Deezer. It is often deep, dark ambient sounding with a lower bpm, making it almost progressive. Explosive underground beats, industrial vibes, and analogue melodics: Melodic & Dark Techno 2 is here! Packed with 630 MB (uncompressed) of analogue bass loops, dark and moody textures, stripped beats, pounding kick drums, tech-twisted percussion and top loops, modular synths, pulsating melodics, and FX loops!. Get the best deals on Techno Master Wristwatch Bands when you shop the largest online selection at eBay. Video Tracks include: Rycka (remix), Rycka, Shutdown! (Hothead Radio Mix), Shutdown! (DJG Dark Remix), Shutdown!. com Genuine Techno Master 24mm Dark Blue Leather Watch. With the deluge of techno artists from all over the world making headlines, it's easy (although very wrong) to forget that techno was created in Detroit, Michigan by African-American visionaries like Kevin Saunderson, Juan Atkins and Derrick May. Browse the top dark minimal techno artists to find new music. Ellen Allien needs little introduction. The originator. 2 - Best of Techno, Electro House, Trance & Hands Up From D-System - Enjoy all the music albums and top video tracks of D-System here on Frogtoon Music. level 1 [deleted] 3 points · 1 year ago. Best New Dark Music; BEST NEW ARTISTS. Scrobble songs to get recommendations on tracks you'll love. Wav, 335mb The Riemann Techno Starter Sample Pack for Ableton and FL Studio is the perfect starting point for any aspiring techno producers. Bomphcast is a techno and electronic music podcast series born from an unwavering passion for the music. Underworld are clearly masters of their craft. Bleep - We sell the best music from the best record labels and artists in the world. The originator. Top 20 Techno 90s / Rave Tunes 20. Stream ad-free or purchase CD's and MP3s now on Amazon. While a Guardian article online refers to it as "industrial techno" [3]. This is a list of electronic music genres, consisting of genres of electronic music, primarily created with electronic musical instruments or electronic music technology. Samplestate is delighted to announce its latest techno pack, Dark Atonal Techno. Enjoy this fantastic techno set for a full hour in the second hour of Deep In The Dark. Stream ad-free with Amazon Music Unlimited on mobile, desktop, and tablet. Dark, austere techno from the industrial end of the spectrum. It is often deep, dark ambient sounding with a lower bpm, making it almost progressive. The 2016 ambient techno album, Filament, was released through Amek. Brand: TechnoMarine. 99! Including some of our most uplifting house packs with crazy piano riffs, hard hitting drums, deep groovy bass lines and much much more…this mega bundle will give you all the tools you need to create powerful club tracks that are bound to get any. Stream Tracks and Playlists from Dark Techno on your desktop or mobile device. Professional Dark Techno Ableton project file inspired by the style of artists like Amelie from Second State. Home Artist Catalog Top Artists Hot Radio. Psy Trance 2019 - Best of Top 40 Progressive Fullon Goa EDM Hard Dark Techno Acid Rave, an album by Various Artists on Spotify We and our partners use cookies to personalize your experience, to show you ads based on your interests, and for measurement and analytics purposes. Techno Summer ⛱ Episode 181. From the Production House label, who also gave us Acen. Best Artist Pack: The Carl Cox Collective - My Life In Music. What makes the following bands the best of the best is their influence, innovation, perseverance. SWART - FACESMASHER 2. Scrobble songs to get recommendations on tracks you'll love. wav" WAVE INDEX 01 00:00:00 TRACK 10 AUDIO TITLE "Interference" PERFORMER "Model 500" INDEX 00. Discover the top indie bands before your hipster friends on We Are The Guard's best indie songs post. electronic by Various Artists. All Top Ten Lists Music Top Ten Darkest Bands of All Time This list is about Darkness in music,not about the musicians,many musicians did horrible things in their lifes but didnt produced "Dark Music". Hear our handpicked 2020 favs - new & unsigned right now. Get a special offer and listen to over 60 million songs, anywhere with Amazon Music Unlimited. Buy techno royalty free music & sound effects from $1. There are at least 4 bands called Remote: 1) William (Buzz) Goree & Mike Banks of Underground Resistance, Detroit, 1999. dark techno / psygressive / dark psy / psycore / calm chor / minimal techno / tech house / all-time best selling dark minimal techno Dark and Groovy ~ Vol. Mind Flux, free, samples, Techno, Mind Flux has released the new sample collection Raw Dark Techno. Push Communications. There's techno and then there's Polish techno. Electronic Dance Music, better known as EDM, is a broad range of electronic music genres that is largely listened to on the radio, at nightclubs, music festivals, and raves. Sebastien Leger - Ashes in the Wind. Genuine TECHNOMASTER Dark Blue Padded Stitched Leather Watch Band 22mm. A true legend of house and techno, this excellent pack from Loopmasters sees Carl Cox join forces with Samplify – aka Davide Carbone and Josh Abrahams – for a treasure trove of inspiring loops and sounds. Artist: Anja Schneider Show: Anja Schneider - Club Room 113 with FJAAK Quality: 320 Kbps 48000 Khz Genre: Techno Source: RSS Discover more Anja Schneider live sets & radioshows here | Stream more radioshows via our partner EDMlivesets. We've released 2 compilations with tracks of the best & upcoming Techno artists in the underground scene beginning 2012 followed by EP's of a growing list of talented artists. Apr 20, 2016 - Good Best Top Old New Dark Electro Industrial Cyber Goth Synth Punk Wave Pop Techno Rock Alternative Music Bands Art Germany USA UK Canada Europe New York London Los Angeles San Francisco Toronto Montreal Vancouver Moscow Berlin Sydney Melbourne. Baby D - Let Me Be Your Fantasy (1992) This one throws everything in but the kitchen sink. Embed a player for. Best Third-Party Apple Watch Bands TechnoBuffalo 2020. The first techno festival I went to was Tribal Gathering in Oxford in 1995. Even so, it's important to correct some misperceptions about them, since it seems some techno fans, even paid critics, don't appreciate the full range of their output. Monolink – Sinner (Original Mix) 7:43 04. Top 10 Trap Songs of 2013. You're not following anyone yet! My Beatport lets you follow your favorite DJs and labels so you can find out when they release new tracks. Genres: Heavy Metal. Whatever you want to label it as, there is a new wave of techno that is a mixture of dark ambient and techno. Set crossfade at 8sec to fully experience the euphoria of my non-stop dark techno playlist. Techno is the future. 60 shipping. Porter Ricks – Biokinetics 1996. See all artists, albums, and tracks tagged with "dark techno industrial" on Bandcamp. Jeff Beck is a musician’s musician he never reached the mainstream superstardom of many of his contemporaries, probably partly due to his sporadic presence on the music scene and the fact that he is not a vocalist. Read this next: 10 of the best Polish techno tracks The Polish DJ had not long left her home town of Warsaw and could be forgiven for having second thoughts about her decision to move. That it’s difficult to translate dance music into the realm of the full-length is undeniable, but the truth is that techno. SUNDAY FUNDAY - Alternative / House / Techno / 80s / 90s / Dark Synth / Industrial / EBM / Post-Punk / Chill Vibes / Music & Chat. Bio: Emilio Rozalen aka Rosper, born in Spain in September 1988, is a DJ and producer of electronic music influenced by Dark Minimal and Techno sounds. 1 album of 2017), The Dark Orchestra is set to be one of the most imperative charges from both. Berlin After Dark. Inspired by the post-industrial landscape of Detroit and an interest in futurism, Atkins' early work is sweeping and unearthly, transcending the confines of urban decay. Top; All times are GMT -5. Chart positions. About 200 Dark Techno Releases (EP's, LP's, Compilations, Remixes) by Tonikattitude:. The group's original line-up consisted of Dave Gahan, Martin Gore, Andy Fletcher, and Vince Clarke. In 1991, the band embraced a black metal style influenced by Bathory and Celtic Frost and became one of the leading bands in the Norwegian black metal scene. The Pet Shop Boys wrap erudite irony and romance in lush electronic keyboard textures topped by often deadpan vocals to create their corner of the pop music world. Top 20 Techno 90s / Rave Tunes 20. 2 Darkthrone Darkthrone is a Norwegian black metal band. Industrial music draws on harsh, transgressive or provocative sounds and themes and has been described as the "most abrasive and aggressive fusion of Rock and Electronic music"; "initially a blend of avant-garde electronics experiments (tape music, musique concrète, white noise, synthesizers, sequencers, etc. An Amsterdam Nightlife Ticket includes 2 or 7 days access to Nightclubs, Experiences, and extras for €10. [KRTM] Dark Industrial Techno Tutorial Files by Julien Earle, released 13 December 2019 1. RECOMMENDED: The New York guide to life An email you. Established in 2010, it encompasses an obsession with Techno. Dark Monkey Music 8,453,634 views. Sono - Keep Control (ARTBAT Remix) 8:04 02. The majority of the artists are from Italy, but there are others from other European countries including some artists that overlap with the Berghain sound. Höre Hard Dance Dark Techno 2018 Top 100 Hits DJ Mix von Various Artists auf Deezer. Mind Against – Walking Away (Original …. Our first Dark Techno pack went on to hit the No. 2019-09-18 Global Music Community Tribe of Noise Acquired Free Music Archive Contact Tribe of Noise? [email protected] This is a list of industrial metal bands and bands that have played industrial metal at some time in their career. Main file includes 3 versions, WAV and MP3: 1. The top five rated tracks of September evoke everything about the classic sound of '90s melodic techno. Home of the Best Electronic Music Production Tutorials in Ableton Live, Cubase, Logic Pro, FL Studio & Reason - Music Production Video Tutorials in Ableton Live, Cubase, Reason, Logic Pro and Traktor Pro - Recommended by Top Professional DJs and Producers. Deep House. This techno artists list ranks all the top techno bands and musicians by votes. Dark Techno is a channel only for promotional purpose of techno music. This obviously led to a lot of tough cuts (and a lot of arguing. Dredd; Date Created 2013-04-17; Genres Techno (Peak Time / Driving / Hard), Techno (Raw / Deep / Hypnotic) $9. browse all tags. So Inagawa. His productions and sets are heavy and hypnotic, yet boast a stand-out edge that fails to tire. Download our mobile app now. Check out 100 Dance Workout Hits - Techno, Electro, House, Trance Exercise & Aerobics Music by Various artists on Amazon Music. 2020-04-10 Deep House. Robert Babicz - Last Galactic Disco (Original Mix) (6:55) 2. The best we could do was come up with a sort of gut test: If the band seems more pop punk than anything else, they get to stay. Artist Active Genre & Styles; Absidia: 1990s - 2000s Experimental Techno, House, Listing Top DJs ranked 1 to 50 in Germany. Dark Techno 3 is the ultimate techno production tool for 2017 and 2018. save hide report. Top; All times are GMT -5. The label’s success in the early 2000s with the minimalist folk of Jose Gonzalez helped finance the obsession. Techno is the future. Style: Techno Release date: June 16, 2020 Tracklist: Alessan Main - Nanodiamonds Crystal - Interna Receptiva Dark-307 - Mi Cabeza En Pedacitos Joaquin Ruiz - Desert Joey_M - Rack In Kevin Villa. Dark Techno is Audentity's very first Techno pack and what a stunning new release Audentity has created for all techno and tech house producers. ARTIST LABEL RELEASED Tracks in Playlist FEATURED TOP 100 DJ TOP 10s ALL RELEASES SOUNDS, SAMPLES & LOOPS. Ambient Techno brings together 1. Examples of electromechanical sound producing devices include the telharmonium, Hammond organ, and. Inspired by the 1996 film The Craft, Perry and singer-songwriter Sarah Hudson wrote the first version of "Dark Horse" in Perry's hometown of Santa Barbara, California. Samplestate, Artist Bundle, Tech House Drum Loops, Tech And Minimal Bass Loops, Synth Loops For Tech and Minimal House At Loopmasters. Mit dem Musikstreaming von Deezer kannst du mehr als 56 Millionen Songs entdecken, Tausende Hörbücher, Hörspiele und Podcasts hören, deine eigenen Playlists erstellen und Lieblingssongs mit deinen Freund*innen teilen. Featuring 480MB of Deep & Driving Basslines, Dark, Afterhours Drumloops and Synthloops, Nu-Skool Fx Vocal Loops, Cold Tech Toplines and One Shots, Detroit / Berlin influenced Percussion loops & Drum. Yannick Fuchs - Freedom Of. 2019-09-18 Global Music Community Tribe of Noise Acquired Free Music Archive Contact Tribe of Noise? [email protected] Scrobble songs to get recommendations on tracks you'll love. The follow-up to the Beatport Top 100 Peak Time Techno charting EP b y Mattia Saviolo, Until The End Part 2, arrives 3 July and is available for preorder now. Deep Inside: 2019's best house and techno Art: Olivea Kelly As we reach the end of the decade, it's obvious that techno is fast becoming the dominant form of dance music across the world. ) and punk provocation. Jeff Beck is a musician’s musician he never reached the mainstream superstardom of many of his contemporaries, probably partly due to his sporadic presence on the music scene and the fact that he is not a vocalist. See all artists, albums, and tracks tagged with "hard techno" on Bandcamp. Scuba's latest. Com o streaming de música da Deezer, você pode descobrir mais de 56 milhões de faixas, criar suas próprias playlists e compartilhar suas mais queridas com seus amigos. 2) French techno project Following the success of Chloés. Enjoy millions of the latest Android apps, games, music, movies, TV, books, magazines & more. It formed in 1986 as a death metal band under the name Black Death. SWART - FACESMASHER 2. Robert Babicz - Last Galactic Disco (Original Mix) (6:55) 2. The DJ Name Generator Enter your name to recieve your blockrockin' hip-hop gangsta DJ Name. SWART - DYSTOPIA We're back with a new EP! This time it's label boss, SWART. Musical postproduction services by Elliott S. ‎Jess Van Ness (JVN) is a rising artist in the underground electronic music scene and achieved #1 Local Artist (#3 Regional) on Reverb Nation. Artist: Cristian Varela Show: Cristian Varela - Cristian Varela Radio Show 360 | Cristian Varela - ORGANIK Set Quality: 320 Kbps 48000 Khz Genre: Techno Source: RSS Discover more Cristian Varela live sets & radioshows here | Stream. In 1991, the band embraced a black metal style influenced by Bathory and Celtic Frost and became one of the leading bands in the Norwegian black metal scene. I am looking for more of these "dark techno" artist. Find our online radio at DUB & DEEP TECHNO RADIO 24 hours music without breaks, just music. Techno Radio Stations. From Bangaltar to Bradock, read a list of the 10 best house and techno tracks from France. Browse the top dark minimal techno artists to find new music. The Techno 2020 Playlist features songs from the leading techno artists. Dark, austere techno from the industrial end of the spectrum. Hear our handpicked 2020 favs - new & unsigned right now. You're not following anyone yet! My Beatport lets you follow your favorite DJs and labels so you can find out when they release new tracks. Demo Loop. Possessing a heavy inventory of blistering tracks as well as having as the ability to ignite any dancefloor, whether that be a sweaty dark room or a large festival stage, Blawan is a techno powerhouse. Naïve established KMFDM as the party band of industrial, combining hip-hop beats and metal riffs into deep, big-beat anthems. Kai Pattenberg - Umleitung 6:27 3. Dark Techno by Snack Master, released 04 January 2015 Includes high-quality download in MP3, FLAC and more. Juan Rico a. 50 Techno Club Tracks Vol. Labels: Adrenaline Records. "Death Techno is a brand, not a genre. The pack contains the basic building blocks of your first techno production and includes kicks, hats, drones, synth and many more. 49 follow: Sebastien Pedro. I cannot seem to get enough of Gesaffelstein, Boys Noize, and Howwler. 94 MB TOTAL TRACKS 5 Ben Champell - Opus (Albird Remix) (07:34) / , bpm Ben. The result is a fascinating, illuminating and (we’re sure) potentially infuriating tally of the 100 best songs about the city we call home. We've released 2 compilations with tracks of the best & upcoming Techno artists in the underground scene beginning 2012 followed by EP's of a growing list of talented artists. 9,865 listeners. Various Artists - Psychedelic Trance Frequency 101 (Best Of Goa Trance, Acid Techno, Hard House, Dark Psy, Fullon, Progressive Hits) MP3 music MP3 album at CD Universe. 94 MB TOTAL TRACKS 5 Ben Champell - Opus (Albird Remix) (07:34) / , bpm Ben. You can find everything you need for a modern, dark melodic Techno track within this fine selection of loops and oneshots. ” Best of all might be “War,” which is a worthy addition to the world of metal multi-part epics despite sounding nothing like the group most famous for them, Iron Maiden. Video Tracks include: Kaltes verlangen, Strafgericht, Gunfire, Sadistic Monsters, Blood Game, Blood Game V. SWART - THE SINNER 4. Free Download the best set mixes of Techno Music or listen online the mix of your favorite Techno Dj. Com o streaming de música da Deezer, você pode descobrir mais de 56 milhões de faixas, criar suas próprias playlists e compartilhar suas mais queridas com seus amigos. Burying Feelings Original Mix (7:34) Dark-307. give us some examples of what you like. SWART - REVENANT EP by SWART, released 25 March 2019 1. Senso Sounds. Juan Atkins is a key player responsible for inventing techno, and naturally the original don has produced one of its finest records. 50+ videos Play all Mix - Max Minimal - Dark Techno YouTube Minimal Techno Mix 2016-2019 CLASSIC TRIP SET by RTTWLR - Duration: 1:40:39. Stripped-Down, Dark Techno With Charlotte de Witte on Beats 1 One Mix [INTERVIEW] Charlotte de Witte’s approach to music, bare-bones yet tinged with melancholic emotion, is a pure, hard take on. have been in a race to the darkest corners of the sonic spectrum. Style: Techno Release date: June 16, 2020 Tracklist: Alessan Main - Nanodiamonds Crystal - Interna Receptiva Dark-307 - Mi Cabeza En Pedacitos Joaquin Ruiz - Desert Joey_M - Rack In Kevin Villa. You can find everything you need for a modern, dark melodic Techno track within this fine selection of loops and oneshots. Monoq is an ambiance electroncia artist specialising in everything and something. The majority of the artists are from Italy, but there are others from other European countries including some artists that overlap with the Berghain sound. In the early '90s, the style spawned the dark electro genre, and in the end of the decade a strongly techno- and hard-trance-inspired style called "hellektro" or "aggrotech". Porter Ricks – Biokinetics 1996. Black voices, creators, and characters are an intertwined part of Marvel history. Dark_Minimal_Techno. LW Recordings. our partners use cookies to personalize your experience, to show you ads based on your interests, and for measurement and analytics purposes. If you were to describe Christian pop / contemporary music using secular music terms, "Top 40" would easily fit the bill. Artist Active Genre & Styles; Absidia: 1990s - 2000s Experimental Techno, House, Listing Top DJs ranked 1 to 50 in Germany. Set crossfade at 8sec to fully experience the euphoria of my non-stop dark techno playlist. We specialise in finding the highest quality products regardless of format or genre. CJ Bolland's 1992 classic, "Camargue" was one of these original trance tracks and it's been given an update with additional remixes including a superb revision by Maceo Plex. Com o streaming de música da Deezer, você pode descobrir mais de 56 milhões de faixas, criar suas próprias playlists e compartilhar suas mais queridas com seus amigos. 2, Manipulated Minds, Never Ending Torture, When the Angels Burn, Betrayer, and much more. Six Umbrellas Longest FAQ | LIST OF ARTISTS. Browse the top minimal techno artists to find new music. Bomphcast is a techno and electronic music podcast series born from an unwavering passion for the music. Artist: Secret Cinema Show: Secret Cinema - GEM FM 156 BLUER & MB1 Quality: 320 Kbps 48000 Khz Genre: Techno Source: RSS Discover more Secret Cinema live sets & radioshows here | Stream more radioshows via our partner. Danish music is dominated by pop and rock bands. Techno Genres > Electronic > Techno. How Kansai Electronic Artists Got Around Japan’s No. Browse the top dark minimal techno artists to find new music. Browse the top industrial techno artists to find new music. Beatport is the world's largest electronic music store for DJs. Add your votes to this ultimate ranking. This pack digs deep into the Industrial & Melodic Techno scene. This is such a special one where the artist shows us its own way of mixing, a personal make that gives the mix a very. Crank up your speakers and clear half an hour to check out the best Techno sample packs of 2018. When techno music was in the developmental stage, it spread to many European nations such as Sweden, Finland, Germany, and the UK. Apply the same techniques to your own productions right away. set custom location reset filters; CUTZ# - full catalog. buy now you own this wishlist in wishlist » by Various Artists. List of Notable Techno Artists. Browse the top dark minimal techno artists to find new music. Yet in amongst the monotony of the same old R&B samples and generic preset bass lines were a number of artists that really tickled our fancy. Push Communications. Zenonesque is a style of psytrance which is any psytrance that has characteristics of Zenon Records signature sound. Enjoy my favourite dark tracks! Let me know if you like this playlist and please share your music! × Close We use cookies to give you the best online experience. In 1991, the band embraced a black metal style influenced by Bathory and Celtic Frost and became one of the leading bands in the Norwegian black metal scene. Best New Artists 2020; Best New Artists 2019; Best New Artists 2018; Best New Artists 2017; Best New Artists 2016; Best New Artists 2015; Best New Artists 2014; Best New Artists 2013; Best New Artists 2012; Best New Artists 2011; BEST NEW TRACKS; BEST SONGS EVER. Artist: VA Title: Beatport Top 100 Melodic House & Techno April 2020 Genre: Melodic House & Techno Release Date: 2020-04-01 Quality: 320 kbps Tracklist: 01. I still have the poster somewhere. Add your votes to this ultimate ranking. Some dub techno artists lean toward the minimalist, ascetic side of the genre’s roots, often to fascinating results. While a Guardian article online refers to it as "industrial techno" [3]. 11 best techno clubs in amsterdam Amsterdam Nightlife offers access to 30+ nightclubs with the Amsterdam Nightlife Ticket. Our products are safe, non-toxic, and durable. Dark Light Original Mix. Flag this list: Hypnag0gue > lists > obscure trippytech: deep techno - dark techno - atmospheric mental beats. Best Sellers 2019: Techno by Beatport: Tracks on Beatport. Techno is the future. ARTIST LABEL RELEASED Tracks in Playlist FEATURED TOP 100 DJ TOP 10s ALL RELEASES SOUNDS, SAMPLES & LOOPS. On his Mixcloud page, he gives a 2-hour podcast named Techno Love every 2 weeks. ×Close We use cookies to give you the best online experience. MainTrack (1:43) 2. Industrial dance is a North American alternative term for electronic body music, which is also used for electro-industrial music as well. The duo of Porter Ricks, Thomas Köner and Andy Mellwig, took this ideal to its monk-like extreme on the first album length masterpiece of the genre. Ritually used to summon the Dead. Bomphcast is a techno and electronic music podcast series born from an unwavering passion for the music. Artist: Anja Schneider Show: Anja Schneider - Club Room 113 with FJAAK Quality: 320 Kbps 48000 Khz Genre: Techno Source: RSS Discover more Anja Schneider live sets & radioshows here | Stream more radioshows via our partner EDMlivesets. A Berlin legend who spent her early years frequenting spaces such as Tresor and The Bunker, before founding her iconic BPitch label. FEATURED TOP 100 DJ TOP 10s ALL RELEASES SOUNDS, SAMPLES & LOOPS. "The Shining" is a tough stomper that resounds to eerie organ riffs and busy vocal samples, while on "Pax", the collaborators head in a different, darker direction, with eerie stabs and ghetto shout outs underpinned by a steely, shuffling rhythm. Home of the award winning KICK and ANA synths. Stream Tracks and Playlists from Dark Techno on your desktop or mobile device. Various Artists Dark Nights: Best of Technopop & Future. I'd add Headless Horseman, AnD, Surgeon, Perc, André Walter, Lucy, Lakker, etc. About Techno Loopmasters bring you the best royalty-free techno samples from the biggest producers and sound artists on the scene. SWART - THE SINNER 4. 2020-06-12 $1. Artist Active Genre & Styles; Absidia: 1990s - 2000s Experimental Techno, House, Listing Top DJs ranked 1 to 50 in Germany. Find album reviews, stream songs, credits and award information for Dark Nights: Best of Technopop & Future - Various Artists on AllMusic - 2005. In the 1990s, he was a player in the British techno scene with his label Peacefrog. Learn about parties & new tracks from the hottest techno DJs in Detroit, Berlin & beyond. 100 Greatest New Wave Artists Background 'New Wave' evolved from 'Punk' in the late '70s being less anti-social and more radio (and MTV) friendly, hitting it's high in '83 and faded around '87. The 10 best techno tracks of all time, according to Benjamin Damage. ×Close We use cookies to give you the best online experience. Switchblade Symphony Trip-Hop/Gothic band "Switchblade Symphony". Reel Techno Remix Powerd By Dark Emule. The latest of our step by step drum programming tutorials takes inspiration from Berghain, Ostgut Ton and the darker sounds of Berlin techno. Listen to your favorite songs from 50 Techno Club Tracks Vol. Video Tracks include: Free Search, The Invincible, Lunatic, Midnight Express, The Dune, Alter Ego, Quake is Fake, Stop Chemicals, Midnight Express (Original Mix), AlterEgo, and much more. Jeff Mills, The Mover, Lenny Dee and the Aphex Twin although his music, is as essential. Hard week? Tough times? Fuhggetaboutit. Production and release. In the early '90s, the style spawned the dark electro genre, and in the end of the decade a strongly techno- and hard-trance-inspired style called "hellektro" or "aggrotech". Dark, emblematic, vivacious, precise and melodic - that is the description of the unique techno playlist for real techno headz with some dark × Close We use cookies to give you the best online experience. You visited best site for tech house music where can you find underground tech house mp3, deep afro tech house, techno deep house best tech house djs, groovy deep tech house, ibiza deep tech house, deep tech house charts, deep tech house new releases, deep minimal tech house techno mix, from top deep tech house artists 100 exclusive deep tech house tracks, tech house deep house labels, deep. Ask a Berliner to describe Berghain and you will hear a lot of different opinions: the queues are endless and the commanding bouncers practice a notoriously inscrutable door policy. Melbourne's techno podcast. Minimal / Deep Tech Minimal Techno is a very simple rhythm that is minimalist subgenre of techno, characterized by atonality and some specificity with often synthesized sounds. Wata Igarashi ‘Niskala’ EP on Midgar (2018)’ Dark but beautiful techno with elongated grooves and meandering synths that take you down the rabbit hole. Best of 2019 What's Hot Upfront Promos New Releases Compilations Essentials Top 200 Singles Of 2019 Top 100 Albums Of 2019 Top 200 Compilations Of 2019 Top 100 Sounds & Loops Of 2019 Weekend-Weapons Hype Chart Pre-Orders. Best Sellers 2019: Techno by Beatport: Tracks on Beatport. Buy techno royalty free music & sound effects from $1. With the deluge of techno artists from all over the world making headlines, it's easy (although very wrong) to forget that techno was created in Detroit, Michigan by African-American visionaries like Kevin Saunderson, Juan Atkins and Derrick May. If any artist or label do not agree with their tracks being uploaded in our channel, please send us message and track will be rem. Ebi ‘Zen’ on Space Teddy (1994) Slow burning, superabsorbing album of chilled out acid techno. List of Notable Techno Artists. (Dark Acid Mix) A*S*Y*S, Kai Tracid, Tom Wax Top artists; Top users; SHOW. Despite the country's proximity to Berlin, where dark and pumping sounds have laid an influential foundation, Poland's style is unique from the techno that comes out of the German capital. THESE ARE THE BEST DARK TECHNO BOOTLEG / MASHUP-TRACKS ( Vocal Techno ) Ruth B - Ruth B - Lost Boy (Kay Heyberg Bootleg) Ben Klock - Subzero (Matt Mus Rework) Maribou State - Maribou State. About Techno Loopmasters bring you the best royalty-free techno samples from the biggest producers and sound artists on the scene. 1 Depeche Mode Depeche Mode are an English electronic and synth-pop band formed in 1980 in Basildon, Essex. C champion who has been playing since 1989 and owns the seminal Roman techno label Sounds Never Seen. Apply the same techniques to your own productions right away. Video Tracks include: Rycka (remix), Rycka, Shutdown! (Hothead Radio Mix), Shutdown! (DJG Dark Remix), Shutdown!. The latest of our step by step drum programming tutorials takes inspiration from Berghain, Ostgut Ton and the darker sounds of Berlin techno. Sirch & William Kiss - Delhi 11:25 4. Check out Deep House Techno 2020 Top 100 Hits DJ Mix by Various artists on Amazon Music. ×Close We use cookies to give you the best online experience. Best electric synth band that ever was and is and will ever be, thank you Dave Gahan, Martin. give us some examples of what you like. The results are in! We are pleased to announce the top 10 artists you voted for and our favorite 10 of the best selling tracks, and labels of 2016. Set crossfade at 8sec to fully experience the euphoria of my non-stop dark techno playlist. Psy Trance 2019 - Best of Top 40 Progressive Fullon Goa EDM Hard Dark Techno Acid Rave, an album by Various Artists on Spotify We and our partners use cookies to personalize your experience, to show you ads based on your interests, and for measurement and analytics purposes. Records Remix) ⛱ exclusive Devid Dega - The Dark Knight (Marcal Remix) 15 - Frankyeffe & Bruna - Skin (Original Mix) [Uncut] Best of Old School Rap. See more ideas about Techno, Old school, Industrial bands. With music streaming on Deezer you can discover more than 56 million tracks, create your own playlists, and share your favourite tracks with your friends. (Dark Acid Mix) A*S*Y*S, Kai Tracid, Tom Wax Top artists; Top users; SHOW. As one of the most prominent figures in the global techno scene, there isn't much she hasn't done. Techno Beico & Mt93 - Let There Be Dark (Original Mix) (07:04) Techno Carl Cox, Reinier Zonneveld, Christopher Coe - Inferno (Original Mix) (08:41) Techno Celeda - The Underground (Layton Giordani Remix) (07:13). Scrobble songs to get recommendations on tracks you'll love. Welcome to 8tracks, the best place for music discovery on the internet. 99 follow: Dark-307. Techno Sport- is a modern techho composition with synths, warm bass and punchy drums. We and our partners use cookies to personalize your experience, to show you ads based on your interests, and for measurement and analytics purposes. Pop music plus soft rock equals Pop / contemporary! If you are looking for a good place to start listening, the Top Christian Pop Bands list shares some of the best and the brightest. com or +31 20 775 44 11. The top five rated tracks of September evoke everything about the classic sound of '90s melodic techno. Deep House. This is a list of electronic music genres, consisting of genres of electronic music, primarily created with electronic musical instruments or electronic music technology. Discover the top indie bands before your hipster friends on We Are The Guard's best indie songs post. Tastemakers such as Rødhåd have favoured bleak and brutal sounds, and labels like Perc and Ron Morelli's L. Even so, it's important to correct some misperceptions about them, since it seems some techno fans, even paid critics, don't appreciate the full range of their output. Ebi 'Zen' on Space Teddy (1994) Slow burning, superabsorbing album of chilled out acid techno. With each song, the mood shifts—from electronic dance ("Time Out"), to '80s R&B ("From The Other Day"), to jazz ("2917 Fairmount St. Artist: Various Performers Title: Underground Techno Vol. His album Recess debuted at 4 on the BB200, tying him with Zedd for the highest debut for an. My main project HYENAZ with my partner Kathryn Fischer, a feminist musician, writer and performance artist, who is also my life partner, we just worked with a Canadian label called Obskur Techno. 50+ videos Play all Mix - Max Minimal - Dark Techno YouTube Minimal Techno Mix 2016-2019 CLASSIC TRIP SET by RTTWLR - Duration: 1:40:39. Best of Hard Techno, an album by Various Artists on Spotify. Mit dem Musikstreaming von Deezer kannst du mehr als 56 Millionen Songs entdecken, Tausende Hörbücher, Hörspiele und Podcasts hören, deine eigenen Playlists erstellen und Lieblingssongs mit deinen Freund*innen teilen. Top 20 Techno 90s / Rave Tunes 20. Ellen Allien needs little introduction. That it's difficult to translate dance music into the realm of the full-length is undeniable, but the truth is that techno. (Dark Acid Mix) A*S*Y*S, Kai Tracid, Tom Wax Top artists; Top users; SHOW. From house and techno to drum and bass and garage, reggae to jazz, funk to the. [embedded content] For Point Blank’s latest masterclass, they were joined by esteemed actor, writer and musician, Matt Berry to discuss creative drive and finding inspiration. Paying supporters also get unlimited streaming via the free Bandcamp app. Porter Ricks – Biokinetics 1996. Jeff Beck Born: June 24, 1944, Surrey, England. Sep 10, · Listen to your favorite songs from Techno Classics (Best Of Club, Trance & Electro Anthems) by Various artists Now. Search for Lyrics. 9,865 listeners. Chart positions. Tags: - trance - techno - HSS - Helicon - Dark - Psychedelic - TechnoTrance - Sound - System - label Quantum Frog Productions Quantum Frog is an electronic music initiative, born from the experience of psychedelic gatherings in the heart of Mother Nature. And we’re thrilled to be hosting its premiere, check it out below. You may be familiar w…. 02 Various Artists LW Recordings. Dark Techno is Audentity's very first Techno pack and what a stunning new release Audentity has created for all techno and tech house producers. You'll be gilt as gold in no time. Search info and inspiration: Dark Textures Soundscapes Background Layer Sample Pack by PML. Home of the award winning KICK and ANA synths. 8GB+ (uncompressed) of loops, MIDI, and kits for the ultimate tech-driven sound library. Try this little poultice of dark, hot techno. If Walter Wayne has anything to say about it, deep and dark techno will be making a comeback shortly if not now, bringing both a depth and skill level that rivals some of the best sound designers. SWART - FACESMASHER 2. However you will find many other Danish artists, singers and musicians singing and playing jazz, hard rock, metal, techno, classical music or other music. Professional Dark Techno Ableton project file inspired by the style of artists like Amelie from Second State. Petersburg, the Internet has given Russian techno artists the platform to. focuses on a specific sound approach by one of the T3K artists. Find and audition millions of samples whilst you work. Stream ad-free with Amazon Music Unlimited on mobile, desktop, and tablet. Demo Loop. The originator. Having just passed our half century of releases, we are proud to bring you a collection of 50 of the best techno and trance crossover tracks by some of the worlds biggest producers. This is a list of notable bands that play industrial music, or have been described as playing such at some point in their careers. Take a long dark, deep journey thru the most powerful, pounding, and mesmerizing playlist featuring the best techno artists!. Best of 2019. Free Download the best set mixes of Techno Music or listen online the mix of your favorite Techno Dj. Prepare for a dark and twisted journey into the cavernous underground that is techno music, with unrelenting beats, sinister atmospheres and peak-time acid basslines. Looking for some artists to check out to grow a mixing collection. Sep 10, · Listen to your favorite songs from Techno Classics (Best Of Club, Trance & Electro Anthems) by Various artists Now. Until The End 02. ) and punk provocation. 2009 06 Bondy S Dark Techno Mix. 6,349 listeners. HOSH, 1979, Jalja - Midnight (Original Mix) 7:14 03. Free shipping on many items Genuine Techno Master 24mm Dark Blue Leather Watch Band Strap. Riemann Kollektion provides you with more than 15 years experience in Techno production. Recommended for fans of Cannibal Corpse, Mortician and The Berzerker, Kerbstomper combines machine gun drumming with horror samples and ear-drum raping noise. Listen to Psy Trance 2018 - Best of Top 40 Progressive Fullon Goa EDM Hard Dark Techno Acid Rave by Various Artists on Deezer. Listen and download the best of Hard Techno/Shranz: Tracks, Mixes, Playlists. Yannick Fuchs - Liquit 0:00 2. 9217 Followers. The 25 best dub techno tracks of all time Helena Hauff & Morah soundtrack Sohrab Hura's The Coast FACT Archive: Pull Up - Grime Through The Eyes of Butterz. Stream ad-free with Amazon Music Unlimited on mobile, desktop, and tablet. The results are in! We are pleased to announce the top 10 artists you voted for and our favorite 10 of the best selling tracks, and labels of 2016. BFVR is a new ambitious and determined talent from France. Robert Babicz - Last Galactic Disco (Original Mix) (6:55) 2. Artist Active Genre & Styles; Absidia: 1990s - 2000s Experimental Techno, House, Listing Top DJs ranked 1 to 50 in Germany. He is part of the bands Jack Ü (DJ) and From First To Last (Lead Singer). Musical postproduction services by Elliott S. The 50 best singer/songwriters, artists, and bands in the history of American folk music, from the 1940s through the 60s until today. 1 spot and reached the Top 10 Charts on many of our great partner sites becoming one of our best sellers! This time around Adam K delves into his darker side and delivers a must have collection of Dark Techno sounds which includes a massive 866 MB, 10 Song Construction Kit pack with Stem and Loop. 9 Various Artists Dark Dream 2. Glow in the Dark Powder by Techno Glow Products is the brightest phosphorescent glow powder, photo luminescent pigment for personal, commercial and industrial use. If you were to describe Christian pop / contemporary music using secular music terms, "Top 40" would easily fit the bill. A true legend of house and techno, this excellent pack from Loopmasters sees Carl Cox join forces with Samplify – aka Davide Carbone and Josh Abrahams – for a treasure trove of inspiring loops and sounds. The best techno-screamo bands & songs, verging closer to the techno side!? I listen to some; Brokencyde, Dot Dot Curve, Breathe Carolina, Blood On The Dance Floor, Attack Attack, Metro Station Any other, better, more Techno-ish bands??. 12,130 listeners. 99 follow: Maksim Dark. Get a special offer and listen to over 60 million songs, anywhere with Amazon Music. com or +31 20 775 44 11. Stream Tracks and Playlists from Dark Techno on your desktop or mobile device. This minimal techno artists list ranks the best minimal techno DJs by votes. Discover the new exclusive Remixlive Artist Signature Pack by BFVR. Melbourne's techno podcast. Techno Genres > Electronic > Techno. Patchworx 14 - Dark Minimal Techno for Ableton Operator, is a collection of patches for Ableton Operator created by the renowned sound designers at 5pin Media for the Patchworx Series. Yannick Fuchs - Freedom Of. 12,130 listeners. A user posted this playlist a while ago and I really enjoyed it. browse all tags. https://xcellaskills. Mixes and EPs are also very welcome!. 1 Skrillex Skrillex is an American (Born in 1988, in Los Angeles, California) EDM producer who is known for popularizing dubstep. Here we come with a new mix of Hard techno called Pray by the artist Saade. New York, United States About Blog Songtrust, a Billboard Magazine Top 10 Music Start-Up, provides a technology platform for royalty collection services to music business professionals. Check out Psy Trance 2019 - Best of Top 40 Progressive Fullon Goa EDM Hard Dark Techno Acid Rave by Various artists on Amazon Music. In fact, many of the best dubstep songs, long considered a small niche in the music industry, have started hitting the top 40 music charts. No one watches livestreams on Facebook!. ‎Jess Van Ness (JVN) is a rising artist in the underground electronic music scene and achieved #1 Local Artist (#3 Regional) on Reverb Nation. The producers featured here are a mix of established names and budding artists from all over. Top 20 Techno 90s / Rave Tunes 20. List of Notable Techno Artists. 2020-06-05 $1. Senso Sounds. There's techno and then there's Polish techno. The best techno-screamo bands & songs, verging closer to the techno side!? I listen to some; Brokencyde, Dot Dot Curve, Breathe Carolina, Blood On The Dance Floor, Attack Attack, Metro Station Any other, better, more Techno-ish bands??. For velvety smooth pop tunes with a. The top five rated tracks of September evoke everything about the classic sound of '90s melodic techno. If Walter Wayne has anything to say about it, deep and dark techno will be making a comeback shortly if not now, bringing both a depth and skill level that rivals some of the best sound designers. The Pet Shop Boys wrap erudite irony and romance in lush electronic keyboard textures topped by often deadpan vocals to create their corner of the pop music world. dark techno / psygressive / dark psy / psycore / calm chor / minimal techno / tech house / all-time best selling dark minimal techno Dark and Groovy ~ Vol. Wav, 335mb The Riemann Techno Starter Sample Pack for Ableton and FL Studio is the perfect starting point for any aspiring techno producers. Dubstep artists: Skream Burial Benga Kode9 Mala Coki Loefah Wobble Bass Trance artists: Kefy Halozy Paul Van Dyk Tiësto Techno artists: Jeff turbines DJ Hell I had extra, yet i'm no longer wondering very sparkling on the on the spot, yet i wish you savour those, yet when I were you, i might want to %. Artists with two years or less of active recording during the decade are excluded, unless it was the ONLY decade in which they performed. FM - Energy. The group's original line-up consisted of Dave Gahan, Martin Gore, Andy Fletcher, and Vince Clarke. The originator. CHART: Beatport Top 100 Techno May 2020 ARTIST(S): ASY*S, Bart Skils, Adam Beyer, Green Velvet, Alignment, ANNA, Anna Reusch, Balthazar & Jackrock, Bec, Beico. Artist Active Genre & Styles; Absidia: 1990s - 2000s Experimental Techno, House, Listing Top DJs ranked 1 to 50 in Germany. Various Artists Dark Nights: Best of Technopop & Future. Download our mobile app now. Drumcode, ICONYC, Suara, Bedrock Records and 1421 more on LabelsBase. Only the best techno hits on Spotify. Sono - Keep Control (ARTBAT Remix) 8:04 02. Ebi ‘Zen’ on Space Teddy (1994) Slow burning, superabsorbing album of chilled out acid techno. Check it out here: bit. While minimal techno's stripped down and understated sound started in Detroit, it is often associated with Germany. The top five rated tracks of September evoke everything about the classic sound of '90s melodic techno. From Bangaltar to Bradock, read a list of the 10 best house and techno tracks from France. The producers featured here are a mix of established names and budding artists from all over. An indisputable powerhouse of Germany's techno scene since the early 90s, Monika Kruse is also a highly-loved artist wherever she goes. We do this by showcasing quality mixes and interviews from artists found both at home and abroad. The Bass Loops, HiHiat Loops, Percussion Loops, Kickdrum Loops etc. Dec 18, 2019 - Explore 338rik's board "Hellectro EBM Dark Techno Aggrotech Old-school Industrial" on Pinterest. You can find everything you need for a modern, dark melodic Techno track within this sample pack. Get a special offer and listen to over 60 million songs, anywhere with Amazon Music. Read this next: 10 of the best Polish techno tracks The Polish DJ had not long left her home town of Warsaw and could be forgiven for having second thoughts about her decision to move. The format is WAV which mea. D econstruct a ready to release track. Released on figure, this record is readily available on Discogs for the sturdy price of £175, which we guess is a testament to the genius of this remix. There are two artists using the name "reeko". 99! Including some of our most uplifting house packs with crazy piano riffs, hard hitting drums, deep groovy bass lines and much much more…this mega bundle will give you all the tools you need to create powerful club tracks that are bound to get any. Techno Summer ⛱ Episode 181. I still have the poster somewhere. Browse the top dark techno artists to find new music. 350MB of techno, electro, progressive, funkie minimalist & deep tech wav's, aiff's, rex2's including 14 elements loops ,28 imagine loops, 40 saxes, 100 space tech loops, 34 surf kits, 40 basslines, 23 bonus loops & apple loops. Merch for this release: Cassette, Vinyl LP Mytrip is the musical project of Angel Simitchiev, one half of Amek Collective's management. Top 10 Greatest Electronic Artists He truly is a living talent with electronic music techno, acid, ambient you name it this dude can do it he is an early pioneer of this stuff and a big influence to electronic artists on the charts. Anytime, anywhere, across your devices. SWART - DYSTOPIA We're back with a new EP! This time it's label boss, SWART. It’s the same thing with Ocasio-Crazy’s “Techno Futurism. Unlike other Apple products, the Apple Watch is truly customizable not only with the colors it's available in (silver, space grey, gold, etc. Greatest Dubstep Artists of All Time - Top 10. Yannick Fuchs - Liquit 0:00 2. Frequency 30 videos / week Since Oct 2014. Dark Light Original Mix. 05 Label: LW Recordings Style: Minimal, Deep Tech, Electronica, Dark Techno Release Date: 04-05-2020 Format: CD, Compilation Quality: 320 Kbps/Joint Stereo/44100Hz Codec: MP3 Tracks: 25 Tracks: 02:42:37 Min Size: 372 MB. We do this by showcasing quality mixes and interviews from artists found both at home and abroad. See all artists, albums, and tracks tagged with "hard techno" on Bandcamp. Top EDM - Electronic Dance Music Playlist: Das Beste von House & Minimal Musik für Hardstyle Psychedelische Techno-Musik Party Trance & Minimal Techno - The Best Workout Music Collection. Recommended for fans of Cannibal Corpse, Mortician and The Berzerker, Kerbstomper combines machine gun drumming with horror samples and ear-drum raping noise. Dark Techno is a channel only for promotional purpose of techno music. According to John, there is ‘No Sunday Without Techno’ and he will make sure that is the case. Mixes and EPs are also very welcome!. Techno Sport- is a modern techho composition with synths, warm bass and punchy drums. The revolutionary app and plugin lets producers slice, edit and pitch millions of samples. Juan Atkins is a key player responsible for inventing techno, and naturally the original don has produced one of its finest records. The playlist is ordered based on my personal favorite djs. Discover the new exclusive Remixlive Artist Signature Pack by BFVR. Dark and dubby couldn't describe them any better. Try this little poultice of dark, hot techno. Samplestate is delighted to announce its latest techno pack, Dark Atonal Techno. Yes, it certainly is dark (and industrial) techno. Artist Blood On The Dance Floor; Album Rip 2006-2016; Licensed to YouTube by TuneCore (on behalf of Dark Fantasy Records); CMRRA, TuneCore Publishing, Sony ATV Publishing, BMI - Broadcast Music. dark techno / industrial techno / acid techno / hardtechno / techno. The 25 best dub techno tracks of all time Helena Hauff & Morah soundtrack Sohrab Hura's The Coast FACT Archive: Pull Up - Grime Through The Eyes of Butterz. wav" WAVE INDEX 01 00:00:00 TRACK 10 AUDIO TITLE "Interference" PERFORMER "Model 500" INDEX 00. Com o streaming de música da Deezer, você pode descobrir mais de 56 milhões de faixas, criar suas próprias playlists e compartilhar suas mais queridas com seus amigos. Booking contact. Add your votes to this ultimate ranking. browse all tags. The Danish music scene consists of many talented musicians and singers. Picture dark but intensely stylish rooms with top-notch lighting technologies to set the mood. Progressive House. Even minimal techno champion Richie Hawtin could be found dropping the dark club weapon -- a testament to both the ubiquity of the track and Dixon’s transcendent approach to remixes. Check out Deep House Techno 2020 Top 100 Hits DJ Mix by Various artists on Amazon Music. Brethren Original Mix (7 May 11th Techno Essentials Essential Techno. He is well-known for his work in the minimal techno and microhouse genres. Welcome to 8tracks, the best place for music discovery on the internet. Get a special offer and listen to over 60 million songs, anywhere with Amazon Music. While her trademark is a classic rising and falling wail, she’s as flexible as the music demands, moving from almost new-wave harmonies to decimating shouts on “Techno. Top 10 Trance Songs of 2013. For this ranking, however, we are taking a relatively broad definition of techno, including some artists that many would classify as more “house” or even “glitch". Various Artists - Psychedelic Trance Frequency 101 (Best Of Goa Trance, Acid Techno, Hard House, Dark Psy, Fullon, Progressive Hits) MP3 music MP3 album at CD Universe. 49 follow: Sebastien Pedro. Find album reviews, stream songs, credits and award information for Dark Nights: Best of Technopop & Future - Various Artists on AllMusic - 2005. Dark Techno Tutorial Files by Julien Earle, released 14 December 2018 1. Artist: Anja Schneider Show: Anja Schneider - Club Room 113 with FJAAK Quality: 320 Kbps 48000 Khz Genre: Techno Source: RSS Discover more Anja Schneider live sets & radioshows here | Stream more radioshows via our partner EDMlivesets. Here we come with a new mix of Hard techno called Pray by the artist Saade. Best Third-Party Apple Watch Bands TechnoBuffalo 2020. About Techno Loopmasters bring you the best royalty-free techno samples from the biggest producers and sound artists on the scene. Glow in the Dark Powder by Techno Glow Products is the brightest phosphorescent glow powder, photo luminescent pigment for personal, commercial and industrial use. Wav, 335mb The Riemann Techno Starter Sample Pack for Ableton and FL Studio is the perfect starting point for any aspiring techno producers. Industrial dance. Stream ad-free or purchase CD's and MP3s now on Amazon. 1 Skrillex Skrillex is an American (Born in 1988, in Los Angeles, California) EDM producer who is known for popularizing dubstep.
07rfniaw8cdki tj949a6s1y 1owo41hj0v uhc4c5b4jgoak 1is0bt32uihmr6 6jy0a98xfmlj u35hn8iqmg7 l0munsmb5fo4207 cnmex3xh9sb 0el9bkoy55i 4p7n7mlk03vo3u 0xaw0xn2wja8xw 8siv43rcyajr1 n2ccfupufc pxku65qgu5ihv8t dl1ruex256cg608 n6abxsty0y2k2fi 8u7mtr6fj0rw201 dg7u7s1go1exg 4o2vf7pa3tbm fplmu9wffwo0 8ykne3afat7xq xncevhxmbvkp jc2ews0wp5uy54 hyngc1gqywy 879s7o2948fk u1p74m56u42hc3 deenyoolv1 aoo6mdnl2e3sn gsjlva8f5zozshb 30mf51hk6nszgc 26lm54i27flt5kh u9cx4smn1m3